Watch WWE NXT 2018-07-11 WEB HEEL /720p mp4

Watch WWE NXT 2018-07-11 WEB HEEL /720p mp4

 

 

 


 

 

dx-tv.com

 

 

 

 

 

Title: WWE.NXT.2018.07.11.WEB.h264-HEEL 
Released: 2018.07.11 
Source: WWE Network 
Resolution: 896 x 504 @ 29.970 FPS 
Video: H.264 @ 1800 kbps 
Audio: AAC @ 96 kbps 
Size: 754 MB 
Runtime: 58mn 27sec 

 

Watch WWE NXT 2018-07-11 WEB HEEL /720p mp4

 

 

Complete name : WWE.NXT.2018.07.11.720p.WEB.h264-HEEL.mp4
Format : MPEG-4
Format profile : Base Media
Codec ID : isom
File size : 1.84 GiB
Duration : 58mn 27s
Overall bit rate : 4 504 Kbps
Writing application : Lavf58.2.103

Video
ID : 1
Format : AVC
Format/Info : Advanced Video Codec
Codec ID/Info : Advanced Video Coding
Duration : 58mn 27s
Bit rate mode : Constant
Bit rate : 4 372 Kbps
Width : 1 280 pixels
Height : 720 pixels
Display aspect ratio : 16:9
Frame rate mode : Variable
Frame rate : 29.970 fps
Minimum frame rate : 28.986 fps
Maximum frame rate : 29.970 fps
Color space : YUV
Chroma subsampling : 4:2:0
Bit depth : 8 bits
Scan type : Progressive
Bits/(Pixel*Frame) : 0.158
Stream size : 1.79 GiB (97%)

Audio
ID : 2
Format : AAC
Format/Info : Advanced Audio Codec
Format profile : LC
Codec ID : 40
Duration : 58mn 27s
Bit rate mode : Constant
Bit rate : 125 Kbps
Channel(s) : 2 channels
Channel positions : Front: L R
Sampling rate : 48.0 KHz
Compression mode : Lossy
Stream size : 52.4 MiB (3%)
Language : English

 

 

Watch WWE NXT 2018-07-11 WEB HEEL /720p mp4

 

 

 

Watch online

 

 

Waiting finish converting video

 

 

Server 1

 

 

 

 

 

 

 

 

 

 

Server 2

 

 

 

 

 

 

 

 

 

 

 

Uploaded.net + rapidgator.net

 

 

 

 

http://shrt10.com/1BzW

 

 

 
http://shrt10.com/aQ56zcJ5

 

 

 
http://shrt10.com/RBBv7O

 

 

 
http://shrt10.com/KsfG
 

 

 

 

Leave a Reply

Your email address will not be published. Required fields are marked *