Watch WWE Main Event 2018/06/14 HDTV Ebi /720p full show

Watch WWE Main Event 2018/06/14 HDTV Ebi /720p full show

 

 

 


 

 

dx-tv.com

 

 

 

Watch WWE Main Event 2018/06/14 HDTV Ebi /720p full show

 

Complete name : \WWE.Main.Event.2018.06.15.HDTV.x264-Ebi.mp4
Format : MPEG-4
Format profile : Base Media / Version 2
Codec ID : mp42
File size : 441 MiB
Duration : 42mn 5s
Overall bit rate : 1 464 Kbps
Encoded date : UTC 2018-06-14 14:30:20
Tagged date : UTC 2018-06-14 14:30:20

Video
ID : 1
Format : AVC
Format/Info : Advanced Video Codec
Codec ID/Info : Advanced Video Coding
Duration : 42mn 5s
Bit rate mode : Variable
Bit rate : 1 300 Kbps
Width : 712 pixels
Height : 400 pixels
Display aspect ratio : 16:9
Frame rate mode : Constant
Frame rate : 29.970 fps
Color space : YUV
Chroma subsampling : 4:2:0
Bit depth : 8 bits
Scan type : Progressive
Bits/(Pixel*Frame) : 0.152
Stream size : 390 MiB (89%)

Audio
ID : 2
Format : AAC
Format/Info : Advanced Audio Codec
Format profile : LC
Codec ID : 40
Duration : 42mn 5s
Bit rate mode : Variable
Bit rate : 160 Kbps
Channel(s) : 2 channels
Channel positions : Front: L R
Sampling rate : 48.0 KHz
Compression mode : Lossy
Stream size : 48.3 MiB (11%)
Title : Stereo
Encoded date : UTC 2018-06-14 14:30:20
Tagged date : UTC 2018-06-14 14:30:20

 

 

 

 

WWE.Main.Event.2018.06.15.720p.HDTV.x264-Ebi
Release Info:
Show Name: WWE Main Event
Genre: Wrestling
Release Date: 2018-06-14(UK)
Air Date: 2018-06-15(AE)
Source : HDTV
Container: MP4
Video: x264, 4689Kbps, 29,970fps, 1280×720, 16:9
Audio: AAC, 192kps, 48KHz, 2ch
Size: 1.38 GB
Runtime: 42mn 05s

 

 

Watch WWE Main Event 2018/06/14 HDTV Ebi /720p full show

 

Watch online

 

 

Waiting finish converting video

 

 

Server 1

 

 

 

 

 

 

 

 

 

 

 

 

 

Server 2

 

 

 

 

 

 


 

 

 

 

 

400p+720p

 

 

 

Uploaded.net + rapidgator.net

 

 

 

 

 

http://shrt10.com/vJAF
 

http://shrt10.com/Vb5m
 

http://shrt10.com/xEe2MPn8

 
http://shrt10.com/KtZX9v
 

 

Leave a Reply

Your email address will not be published. Required fields are marked *