Watch WWE Something Else To Wrestle S01E09 AJ Styles in TNA WEB HEEL /720p

Watch WWE Something Else To Wrestle S01E09 AJ Styles in TNA WEB HEEL /720p

 

 

 


 

 

dx-tv.com

 

 

 

Watch WWE Something Else To Wrestle S01E09 AJ Styles in TNA WEB HEEL /720p

 

Title: WWE.Something.Else.To.Wrestle.S01E09.AJ.Styles.in.TNA.WEB.h264-HEEL 
Released: 2018.06.13 
Source: WWE Network 
Resolution: 960 x 540 @ 29.970 FPS 
Video: H.264 @ 1800 kbps 
Audio: AAC @ 96 kbps 
Size: 990 MB 
Runtime: 1h 18mn 

 

 

 

Watch WWE Something Else To Wrestle S01E09 AJ Styles in TNA WEB HEEL /720p

 

 

Complete name :\WWE.Something.Else.To.Wrestle.S01E09.AJ.Styles.in.TNA.720p.WEB.h264-HEEL.mp4
Format : MPEG-4
Format profile : Base Media
Codec ID : isom
File size : 2.42 GiB
Duration : 1h 17mn
Overall bit rate : 4 464 Kbps

Video
ID : 1
Format : AVC
Format/Info : Advanced Video Codec
Codec ID : avc1
Codec ID/Info : Advanced Video Coding
Duration : 1h 17mn
Bit rate mode : Variable
Bit rate : 4 362 Kbps
Maximum bit rate : 5 500 Kbps
Width : 1 280 pixels
Height : 720 pixels
Display aspect ratio : 16:9
Frame rate mode : Constant
Frame rate : 29.970 fps
Color space : YUV
Chroma subsampling : 4:2:0
Bit depth : 8 bits
Scan type : Progressive
Bits/(Pixel*Frame) : 0.158
Stream size : 2.37 GiB (98%)

Audio
ID : 2
Format : AAC
Format/Info : Advanced Audio Codec
Format profile : LC
Codec ID : 40
Duration : 1h 17mn
Bit rate mode : Variable
Bit rate : 93.5 Kbps
Maximum bit rate : 96.0 Kbps
Channel(s) : 2 channels
Channel positions : Front: L R
Sampling rate : 48.0 KHz
Compression mode : Lossy
Stream size : 52.0 MiB (2%)

 

 

 

 

 

Watch online

 

 

Waiting finish converting video

 

 

Server 1

 

 

 

 

 

 

 

 

 

 

 

 

Server 2

 

 

 

 

 

 

 

 

 

 

 

 

400p+720p

 

 

 

 

 

Uploaded.net + rapidgator.net

 

 

 

 

 

 
http://shrt10.com/pX8n53X
 

 

 

http://shrt10.com/npfer
 

 

 

http://shrt10.com/vHPF

 

 

 
http://shrt10.com/rySyaF
 

 

 

 

 

 

 

Leave a Reply

Your email address will not be published. Required fields are marked *