Watch WWE NXT 2018/06/13 WEB HEEL /720p

Watch WWE NXT 2018/06/13 WEB HEEL /720p

 

 

 


 

 

dx-tv.com

 

 

 

Watch WWE NXT 2018/06/13 WEB HEEL /720p

 

 

 
Title: WWE.NXT.2018.06.13.WEB.h264-HEEL 
Released: 2018.06.13 
Source: WWE Network 
Resolution: 896 x 504 @ 29.970 FPS 
Video: H.264 @ 1800 kbps 
Audio: AAC @ 96 kbps 
Size: 772 MB 
Runtime: 59mn 49sec 
 

 

 

Watch WWE NXT 2018/06/13 WEB HEEL /720p

 

 

 

Complete name : WWE.NXT.2018.06.13.720p.WEB.h264-HEEL.mp4
Format : MPEG-4
Format profile : Base Media
Codec ID : isom
File size : 1.88 GiB
Duration : 59mn 50s
Overall bit rate : 4 504 Kbps

Video
ID : 1
Format : AVC
Format/Info : Advanced Video Codec
Codec ID : avc1
Codec ID/Info : Advanced Video Coding
Duration : 59mn 50s
Bit rate mode : Constant
Bit rate : 4 372 Kbps
Width : 1 280 pixels
Height : 720 pixels
Display aspect ratio : 16:9
Frame rate mode : Variable
Frame rate : 29.970 fps
Minimum frame rate : 26.308 fps
Maximum frame rate : 29.970 fps
Color space : YUV
Chroma subsampling : 4:2:0
Bit depth : 8 bits
Scan type : Progressive
Bits/(Pixel*Frame) : 0.158
Stream size : 1.83 GiB (97%)

Audio
ID : 2
Format : AAC
Format/Info : Advanced Audio Codec
Format profile : LC
Codec ID : 40
Duration : 59mn 49s
Bit rate mode : Constant
Bit rate : 125 Kbps
Channel(s) : 2 channels
Channel positions : Front: L R
Sampling rate : 48.0 KHz
Compression mode : Lossy
Stream size : 53.7 MiB (3%)
Language : English

 

 

 

 

 

Watch online

 

 

Waiting finish converting video

 

 

Server 1

 

 

 

 

 

 

 

 

 

 

 

Server 2

 

 

 

 

 

 

 


 

 

 

 

 

 

 

400p+720p

 

 

 

 

 

Uploaded.net + rapidgator.net

 

 

 

 

 

http://shrt10.com/ou02d6uj
 

http://shrt10.com/ko0Jp
 

http://shrt10.com/VHeMTT

 
http://shrt10.com/NH64m96
 

 

 

 

Leave a Reply

Your email address will not be published. Required fields are marked *