Watch WWE 205 Live 2018/06/12 WEB HEEL /720p Full Show Online

Watch WWE 205 Live 2018/06/12 WEB HEEL /720p Full Show Online

 

 

 


 

dx-tv.com

 

 

 

 

 

Title: WWE.205.Live.2018.06.12.WEB.h264-HEEL 
Released: 2018.06.12 
Source: WWE Network 
Resolution: 896 x 504 @ 29.970 FPS 
Video: H.264 @ 1800 kbps 
Audio: AAC @ 96 kbps 
Size: 684 MB 
Runtime: 53mn 01sec 

 

 

Watch WWE 205 Live 2018/06/12 WEB HEEL /720p Full Show Online

 

Complete name : WWE.205.Live.2018.06.12.720p.WEB.h264-HEEL.mp4
Format : MPEG-4
Format profile : Base Media
Codec ID : isom
File size : 1.67 GiB
Duration : 53mn 1s
Overall bit rate : 4 503 Kbps

Video
ID : 1
Format : AVC
Format/Info : Advanced Video Codec
Codec ID/Info : Advanced Video Coding
Duration : 53mn 1s
Bit rate mode : Constant
Bit rate : 4 372 Kbps
Width : 1 280 pixels
Height : 720 pixels
Display aspect ratio : 16:9
Frame rate mode : Variable
Frame rate : 29.970 fps
Minimum frame rate : 21.797 fps
Maximum frame rate : 29.970 fps
Color space : YUV
Chroma subsampling : 4:2:0
Bit depth : 8 bits
Scan type : Progressive
Bits/(Pixel*Frame) : 0.158
Stream size : 1.62 GiB (97%)

Audio
ID : 2
Format : AAC
Format/Info : Advanced Audio Codec
Format profile : LC
Codec ID : 40
Duration : 53mn 1s
Bit rate mode : Variable
Bit rate : 125 Kbps
Maximum bit rate : 131 Kbps
Channel(s) : 2 channels
Channel positions : Front: L R
Sampling rate : 48.0 KHz
Compression mode : Lossy
Stream size : 47.6 MiB (3%)
Language : English

 

 

 

 

Watch WWE 205 Live 2018/06/12 WEB HEEL /720p Full Show Online

 

 

Watch online

 

 

Waiting finish converting video

 

 

Server 1

 

 

 

 

 

 

 

 

 

 

 

 

 

 

 

Server 2

 

 

 

 

 

 


 

 

 

400p+720p

 

 

 

 

 

Uploaded.net + rapidgator.net

 

 

 

 

 

 

http://shrt10.com/Lcu6oSZS
 

http://shrt10.com/oGDS

http://shrt10.com/J4oUK3vR

 
http://shrt10.com/yFb4vK
 

 

 

Leave a Reply

Your email address will not be published. Required fields are marked *