Watch iMPACT Wrestling 2018-05-17 WEB HEEL /720p

Watch iMPACT Wrestling 2018-05-17 WEB HEEL /720p

 

 

 


 

dx-tv.com

 

 

 

 

 

Title: iMPACT.Wrestling.2018.05.17.WEB.h264-HEEL
Released: 2018.05.17
Source: WEB
Resolution: 960 x 540 @ 29.970 FPS
Video: H.264 @ 1800 kbps
Audio: HE-AAC @ 64 kbps
Size: 1.19 GB
Runtime: 1h 31mn

 

Watch iMPACT Wrestling 2018-05-17 WEB HEEL /720p

 

 

 
Complete name : iMPACT.Wrestling.2018.05.17.720p.WEB.h264-HEEL.mp4
Format : MPEG-4
Format profile : Base Media
Codec ID : isom
File size : 2.91 GiB
Duration : 1h 31mn

Video
ID : 1
Format : AVC
Format/Info : Advanced Video Codec
Codec ID : avc1
Codec ID/Info : Advanced Video Coding
Duration : 1h 31mn
Bit rate mode : Constant
Bit rate : 4 500 Kbps
Width : 1 280 pixels
Height : 720 pixels
Display aspect ratio : 16:9
Frame rate mode : Constant
Frame rate : 29.970 fps
Color space : YUV
Chroma subsampling : 4:2:0
Bit depth : 8 bits
Scan type : Progressive
Bits/(Pixel*Frame) : 0.163
Stream size : 2.87 GiB (98%)

Audio
ID : 2
Format : AAC
Format/Info : Advanced Audio Codec
Codec ID : 40
Duration : 1h 31mn
Bit rate mode : Variable
Bit rate : 62.8 Kbps
Maximum bit rate : 72.5 Kbps
Channel(s) : 2 channels
Channel positions : Front: L R
Sampling rate : 44.1 KHz / 22.05 KHz
Compression mode : Lossy
Stream size : 41.0 MiB (1%)

 

 

 Watch iMPACT Wrestling 2018-05-17 WEB HEEL /720p

 

Watch online

 

 

Waiting finish converting video

 

 

Server 1

 

 

 

 

 

 

 

 

 

 

Server 2

 

 

 

 

 


 

400p+720p

 

 

 

 

 

Uploaded.net + rapidgator.net

 

 

 

 

 

 

 
http://shrt10.com/Be9zm
 

http://shrt10.com/nYwwth5b
 

http://shrt10.com/AETpYSM
 

http://shrt10.com/m8IHts6S

 

 

 

 

Leave a Reply

Your email address will not be published. Required fields are marked *