WWE Raw 2018-04-16 HDTV NWCHD /720p

WWE Raw 2018-04-16 HDTV NWCHD /720p

 

 

 

 

 

 

 

 

dx-tv.com

 

 

 

 

 

File Name – WWE.Monday.Night.Raw.2018.04.16.HDTV.x264-NWCHD 
Released – 04.16.2018 
Aired – 04.16.2018 
Size – 1.48 GB 
Source – USA HD 
Container – MP4 
Resolution – 704 x 400 (16:9) @ 29.970 FPS 
Video – x264 @ 1400 kbps 
Audio – AAC 192 kbps 
Length – 02:14:59 min

 

 

 

WWE Raw 2018-04-16 HDTV NWCHD /720p

 

 

 

Complete name : WWE.Monday.Night.Raw.2018.04.16.720p.HDTV.x264-NWCHD.mp4
Format : MPEG-4
Format profile : Base Media
Codec ID : isom
File size : 4.39 GiB
Duration : 2h 14mn
Overall bit rate : 4 654 Kbps
Writing application : Lavf56.40.101

Video
ID : 1
Format : AVC
Format/Info : Advanced Video Codec 
Codec ID : avc1
Codec ID/Info : Advanced Video Coding
Duration : 2h 14mn
Bit rate mode : Variable
Bit rate : 4 500 Kbps
Width : 1 280 pixels
Height : 720 pixels
Display aspect ratio : 16:9
Frame rate mode : Variable
Frame rate : 29.970 fps
Minimum frame rate : 29.126 fps
Maximum frame rate : 29.970 fps
Color space : YUV
Chroma subsampling : 4:2:0
Bit depth : 8 bits
Scan type : Progressive
Bits/(Pixel*Frame) : 0.163
Stream size : 4.20 GiB (96%)

Audio
ID : 2
Format : AAC
Format/Info : Advanced Audio Codec
Format profile : LC
Codec ID : 40
Duration : 2h 14mn
Bit rate mode : Constant
Bit rate : 192 Kbps
Channel(s) : 2 channels
Channel positions : Front: L R
Sampling rate : 48.0 KHz
Compression mode : Lossy
Stream size : 186 MiB (4%)

 

 

WWE Raw 2018-04-16 HDTV NWCHD /720p

 

 

 

Watch online

 

 

Waiting finish converting video

 

 

Server 1

 

 

 

 

 

 

 

 

 

 

 

 

Server 2

 

 

 

 

 

 

 

 

 

 

 

 

 

 

 

400p+720p

 

 

 

 

 

Uploaded.net + rapidgator.net

 

 

 

 

 

 

http://shrt10.com/BWpaoThv

 

 

http://shrt10.com/fJ82u98

 

 

http://shrt10.com/tR2iFMe

 

 

http://shrt10.com/jMhcmQ

 

 

 

 

 

 

 

 

Leave a Reply

Your email address will not be published. Required fields are marked *