VFC 60 2018-04-15 WEB SF63/ 720p

VFC 60 2018-04-15 WEB SF63/ 720p

 

 

 

 

 

 

dx-tv

 

 

 

 

 

 

 

 
Name: VFC.60.Kapel.vs.Nowaczyk.WEB.h264-SF63
Release: Apr 15, 2018
Source: WEB
Encoder: Sajjad Fazli
Video: MPEG4 (H264) 960×540 1441kbps 29.970fps
Audio: AAC 44100Hz stereo 77.6kbps
File size: 2.15 GiB
Duration: 3h 21min 15s

 

VFC 60 2018-04-15 WEB SF63/ 720p

 

 

 

 

 

Complete name : VFC.60.Kapel.vs.Nowaczyk.720p.WEB.h264-SF63.mp4
Format : MPEG-4
Format profile : Base Media
Codec ID : isom
File size : 4.12 GiB
Duration : 3h 21mn
Overall bit rate : 2 927 Kbps
Writing application : Lavf56.40.101

Video
ID : 1
Format : AVC
Format/Info : Advanced Video Codec
Codec ID/Info : Advanced Video Coding
Duration : 3h 21mn
Bit rate mode : Variable
Bit rate : 2 791 Kbps
Width : 1 280 pixels
Height : 720 pixels
Display aspect ratio : 16:9
Frame rate mode : Constant
Frame rate : 29.970 fps
Color space : YUV
Chroma subsampling : 4:2:0
Bit depth : 8 bits
Scan type : Progressive
Bits/(Pixel*Frame) : 0.101
Stream size : 3.92 GiB (95%)

Audio
ID : 2
Format : AAC
Format/Info : Advanced Audio Codec
Format profile : LC
Codec ID : 40
Duration : 3h 21mn
Bit rate mode : Variable
Bit rate : 126 Kbps
Maximum bit rate : 160 Kbps
Channel(s) : 2 channels
Channel positions : Front: L R
Sampling rate : 44.1 KHz
Compression mode : Lossy
Stream size : 181 MiB (4%)

 

 

 

VFC 60 2018-04-15 WEB SF63/ 720p

 

 

Watch online

 

 

Waiting finish converting video

 

 

Server 1

 

 

 

 

 

 

 

 

 

 

 

 

 

 

 

Server 2

 

 

 

 

 

 


 

 

 

400p+720p

 

 

 

 

 

Uploaded.net + rapidgator.net

 

 

 

 

 

 

http://shrt10.com/4ZOVnfEb

 

 

http://shrt10.com/xXPFHZ

 

 

http://shrt10.com/Z03EbN7

 

 

http://shrt10.com/uBIhd

 

 

 

 

 

Leave a Reply

Your email address will not be published. Required fields are marked *