Download UFC on Fox 29 Prelims WEB /720p

Download UFC on Fox 29 Prelims WEB /720p

 

 

 

 

 

 

 

 

dx-tv.com

 

 

 

 

 

 

[EVENT]: UFC.on.Fox.29.Prelims.WEB-DLmp4
[SIZE]: 1.23 GB
[SOURCE]: Fight Pass
[CONTAINER]: mp4
[RESOLUTION]: 960 x 540 @ 29.970 FPS
[VIDEO]: H264 @ 1406 Kbps
[AUDIO]: AAC @ 77.6 kbps
[Length]: 01:58:24
[Language]: English

 

 

 

Download UFC on Fox 29 Prelims WEB /720p

 

 

 

 

Complete name : UFC.on.Fox.29.Prelims.720p.WEB-DL.mp4
Format : MPEG-4
Format profile : Base Media
Codec ID : isom
File size : 3.39 GiB
Duration : 1h 58mn
Overall bit rate : 4 103 Kbps
Writing application : Lavf56.40.101

Video
ID : 1
Format : AVC
Format/Info : Advanced Video Codec
Codec ID : avc1
Codec ID/Info : Advanced Video Coding
Duration : 1h 58mn
Bit rate mode : Variable
Bit rate : 3 969 Kbps
Width : 1 280 pixels
Height : 720 pixels
Display aspect ratio : 16:9
Frame rate mode : Variable
Frame rate : 29.922 fps
Original frame rate : 29.970 fps
Minimum frame rate : 0.163 fps
Maximum frame rate : 29.970 fps
Color space : YUV
Chroma subsampling : 4:2:0
Bit depth : 8 bits
Scan type : Progressive
Bits/(Pixel*Frame) : 0.144
Stream size : 3.28 GiB (97%)

Audio
ID : 2
Format : AAC
Format/Info : Advanced Audio Codec
Format profile : LC
Codec ID : 40
Duration : 1h 58mn
Bit rate mode : Constant
Bit rate : 125 Kbps
Channel(s) : 2 channels
Channel positions : Front: L R
Sampling rate : 44.1 KHz
Compression mode : Lossy
Stream size : 106 MiB (3%)

 

 

 

 

 

 

Download UFC on Fox 29 Prelims WEB /720p

 

 

 

Watch online

 

 

Waiting finish converting video

 

 

Server 1

 

 

 

 

 

 

 

 

 

 

 

 

Server 2

 

 

 

 

 

 


 

 

 

 

 

400p+720p

 

 

 

 

 

Uploaded.net + rapidgator.net

 

 

 

 

 

http://shrt10.com/ykSLnGG

 

 

http://shrt10.com/7AaBg2

 

 

http://shrt10.com/oaK1

 

 

http://shrt10.com/eHVYdNR

 

 

 

 

 

 

Leave a Reply

Your email address will not be published. Required fields are marked *