Watch UFC on Fox 29 Erly Prelims WEB /720p

Watch UFC on Fox 29 Erly Prelims WEB /720p

 

 

 

 

 

 

 

 

dx-tv.com

 

 

 

 

 

 

 

[EVENT]: UFC.on.Fox.29.Early.Prelims.WEB-DL.mp4
[SIZE]: 1.59 GB
[SOURCE]: Fight Pass
[CONTAINER]: mp4
[RESOLUTION]: 852 x 480 @ 29.970 FPS
[VIDEO]: H264 @ 1441 Kbps
[AUDIO]: AAC @ 77.6 kbps
[Length]: 02:29:10
[Language]: English

 

 

 

 

Watch UFC on Fox 29 Erly Prelims WEB /720p

 

 

Complete name : UFC.on.Fox.29.Early.Prelims.720p.WEB-DL.mp4
Format : MPEG-4
Format profile : Base Media
Codec ID : isom
File size : 4.61 GiB
Duration : 2h 29mn
Overall bit rate : 4 422 Kbps
Writing application : Lavf56.40.101

Video
ID : 1
Format : AVC
Format/Info : Advanced Video Codec
Codec ID : avc1
Codec ID/Info : Advanced Video Coding
Duration : 2h 29mn
Bit rate mode : Variable
Bit rate : 4 287 Kbps
Width : 1 280 pixels
Height : 720 pixels
Display aspect ratio : 16:9
Frame rate mode : Variable
Frame rate : 29.970 fps
Minimum frame rate : 0.361 fps
Maximum frame rate : 29.970 fps
Color space : YUV
Chroma subsampling : 4:2:0
Bit depth : 8 bits
Scan type : Progressive
Bits/(Pixel*Frame) : 0.155
Stream size : 4.47 GiB (97%)

Audio
ID : 2
Format : AAC
Format/Info : Advanced Audio Codec
Format profile : LC
Codec ID : 40
Duration : 2h 29mn
Bit rate mode : Variable
Bit rate : 126 Kbps
Maximum bit rate : 236 Kbps
Channel(s) : 2 channels
Channel positions : Front: L R
Sampling rate : 44.1 KHz
Compression mode : Lossy
Stream size : 134 MiB (3%)

 

Watch UFC on Fox 29 Erly Prelims WEB /720p

 

 

Watch online

 

 

Waiting finish converting video

 

 

Server 1

 

 

 

 

 

 

 

 

 

 

 

 

 

 

 

Server 2

 

 

 

 

 

 

 


 

 

 

400p+720p

 

 

 

 

 

Uploaded.net + rapidgator.net

 

 

 

 

 

 

http://shrt10.com/jLLcxyf

 

 

 

http://shrt10.com/0IrbzUm

 

 

http://shrt10.com/W0zCB

 

 

 

http://shrt10.com/bwOLk

 

 

 

 

 

Leave a Reply

Your email address will not be published. Required fields are marked *