Download WWE Raw 2018-03-12 HDTV NWCHD /720p

Download WWE Raw 2018-03-12 HDTV NWCHD /720p

 

 

 

s

 

 

 

wwe

 

 

 

 

 

 

 
File Name – WWE.Monday.Night.Raw.2018.03.12.HDTV.x264-NWCHD
Released – 03.12.2018
Aired – 03.12.2018
Size – 1.42 GB
Source – USA HD
Container – MP4
Resolution – 704 x 400 (16:9) @ 29.970 FPS
Video – x264 @ 1400 kbps
Audio – AAC 192 kbps
Length – 02:09:47 min

 

Download WWE Raw 2018-03-12 HDTV NWCHD /720p

 

 

Complete name : WWE.Monday.Night.Raw.2018.03.12.720p.HDTV.x264-NWCHD.mp4
Format : MPEG-4
Format profile : Base Media
Codec ID : isom
File size : 4.21 GiB
Duration : 2h 9mn
Overall bit rate : 4 640 Kbps
Writing application : Lavf56.40.101

Video
ID : 1
Format : AVC
Format/Info : Advanced Video Codec
Codec ID : avc1
Codec ID/Info : Advanced Video Coding
Duration : 2h 9mn
Bit rate mode : Variable
Bit rate : 4 500 Kbps
Width : 1 280 pixels
Height : 720 pixels
Display aspect ratio : 16:9
Frame rate mode : Variable
Frame rate : 29.970 fps
Minimum frame rate : 29.155 fps
Maximum frame rate : 29.970 fps
Color space : YUV
Chroma subsampling : 4:2:0
Bit depth : 8 bits
Scan type : Progressive
Bits/(Pixel*Frame) : 0.163
Stream size : 4.02 GiB (96%)

Audio
ID : 2
Format : AAC
Format/Info : Advanced Audio Codec
Format profile : LC
Codec ID : 40
Duration : 2h 9mn
Bit rate mode : Variable
Bit rate : 192 Kbps
Maximum bit rate : 200 Kbps
Channel(s) : 2 channels
Channel positions : Front: L R
Sampling rate : 48.0 KHz
Compression mode : Lossy
Stream size : 178 MiB (4%)

 

Download WWE Raw 2018-03-12 HDTV NWCHD /720p

 

 

 

Watch online

 

 

Waiting finish converting video

 

 

Server 1

 

 

 

 

 

 

 

 

 

 

 

Server 2

 

 

 

 

 

 


 

 

 

 

 

400p+720p

 

 

 

 

 

Uploaded.net + rapidgator.net

 

 

 

 

 

 

http://shrt10.com/AdGC0

 

 

 

http://shrt10.com/i6oQ1s

 

 

 

http://shrt10.com/EpFJ

 

 

http://shrt10.com/9KMs

 

 

 

 

Leave a Reply

Your email address will not be published. Required fields are marked *