Download wXw 16 Carat Gold 2018 Day 2 WEB /720p mp4

Download wXw 16 Carat Gold 2018 Day 2 WEB /720p mp4

 

 

 

s

 

 

 

wwe

 

 

 

 

 
wXw Unified World Wrestling Championship, 3 Way Dance:
John “Bad Bones” Klinger vs. Ilja Dragunov vs. WALTER

wXw Women’s Championship Match:
Toni Storm vs. Melanie Gray

wXw Shotgun Championship:
Bobby Gunns vs. Speedball Mike Bailey

Quarter Finals:
Absolute Andy vs. Matt Riddle
Keith Lee vs. Chris Brookes
David Starr vs. Travis Banks
Lucky Kid vs. Timothy Thatcher

Alexander James vs. Jonah Rock

wXw World Tag Team #1 Contendership Four Way Dance:
Jay FK (Jay Skillet & Francis Kaspin) vs. Mark Haskins & Matt Sydal vs. Monster Consulting (Avalanche & Julian Nero) vs. RISE (Da Mack & Ivan Kiev)
 

 

 

Download wXw 16 Carat Gold 2018 Day 2 WEB /720p mp4

 

 

Complete name :wXw.16.Carat.Gold.2018.Day.2.720p.WEB-DL.mp4
Format : MPEG-4
Format profile : Base Media / Version 2
Codec ID : mp42
File size : 3.01 GiB
Duration : 2h 36mn
Overall bit rate : 2 752 Kbps
Encoded date : UTC 2018-03-13 17:48:35
Tagged date : UTC 2018-03-13 17:48:35

Video
ID : 1
Format : AVCx
Format settings, GOP : M=1, N=32
Codec ID : avc1
Codec ID/Info : Advanced Video Coding
Duration : 2h 36mn
Bit rate mode : Variable
Bit rate : 2 500 Kbps
Width : 1 280 pixels
Height : 720 pixels
Display aspect ratio : 16:9
Frame rate mode : Constant
Frame rate : 50.000 fps
Color space : YUV
Chroma subsampling : 4:2:0
Bit depth : 8 bits
Scan type : Progressive
Bits/(Pixel*Frame) : 0.054
Stream size : 2.73 GiB (90%)

Audio
ID : 2
Format : AAC
Format/Info : Advanced Audio Codec
Format profile : LC
Codec ID : 40
Duration : 2h 36mn
Bit rate mode : Variable
Bit rate : 256 Kbps
Channel(s) : 2 channels
Channel positions : Front: L R
Sampling rate : 48.0 KHz
Compression mode : Lossy
Stream size : 287 MiB (9%)
Encoded date : UTC 2018-03-13 17:48:35
Tagged date : UTC 2018-03-13 17:48:35

 

 

Download wXw 16 Carat Gold 2018 Day 2 WEB /720p mp4

 

 

 

Watch online

 

 

Waiting finish converting video

 

 

Server 1

 

 

 

 

 

 

 

 

 

 

 

 

 

Server 2

 

 

 

 


 

 

400p+720p

 

 

 

 

 

Uploaded.net + rapidgator.net

 

 

 

 

 

 

 

http://shrt10.com/XkUhn

 

 

http://shrt10.com/IZu2rs3

 

 

http://shrt10.com/iRU8j

 

 

http://shrt10.com/eLO5oY47

 

 

 

 

 

 

 

Leave a Reply

Your email address will not be published. Required fields are marked *