Download wXw 16 Carat Gold 2018 Day 1 WEB /720p mp4

Download wXw 16 Carat Gold 2018 Day 1 WEB /720p mp4

 

 

 

s

 

 

 

wwe

 

 

Download wXw 16 Carat Gold 2018 Day 1 WEB /720p mp4

 
First Round Matches:
Absolute Andy vs. Marius Al-Ani
Avalanche vs. Keith Lee
Mark Haskins vs. Travis Banks
David Starr vs. Winner of the Alternate Four Way Dance
Lucky Kid vs. Matt Sydal
Jonah Rock vs. Timothy Thatcher
Alexander James vs. Chris Brookes
Da Mack vs. Matt Riddle

Alternate Four Way Dance:
Emil Sitoci vs. Ivan Kiev vs. Julian Nero vs. Julian Pace

John “Bad Bones” Klinger & Bobby Gunns vs. WALTER & Speedball Mike Bailey

 

 

 

 

Complete name : wXw.16.Carat.Gold.2018.Day.2.720p.WEB-DL.mp4
Format : MPEG-4
Format profile : Base Media / Version 2
Codec ID : mp42
File size : 3.01 GiB
Duration : 2h 36mn
Overall bit rate : 2 752 Kbps
Encoded date : UTC 2018-03-13 17:48:35
Tagged date : UTC 2018-03-13 17:48:35

Video
ID : 1
Format : AVC
Format/Info : Advanced Video Codec
Codec ID : avc1
Codec ID/Info : Advanced Video Coding
Duration : 2h 36mn
Bit rate mode : Variable
Bit rate : 2 500 Kbps
Width : 1 280 pixels
Height : 720 pixels
Display aspect ratio : 16:9
Frame rate mode : Constant
Frame rate : 50.000 fps
Color space : YUV
Chroma subsampling : 4:2:0
Bit depth : 8 bits
Scan type : Progressive
Bits/(Pixel*Frame) : 0.054
Stream size : 2.73 GiB (90%)
Writing library : x264 core 155 r10 7d0ff22

Audio
ID : 2
Format : AAC
Format/Info : Advanced Audio Codec
Format profile : LC
Codec ID : 40
Duration : 2h 36mn
Bit rate mode : Variable
Bit rate : 256 Kbps
Channel(s) : 2 channels
Channel positions : Front: L R
Sampling rate : 48.0 KHz
Compression mode : Lossy
Stream size : 287 MiB (9%)
Encoded date : UTC 2018-03-13 17:48:35
Tagged date : UTC 2018-03-13 17:48:35

 

 

 

Download wXw 16 Carat Gold 2018 Day 1 WEB /720p mp4

 

 

Watch online

 

 

Waiting finish converting video

 

 

Server 1 

 

 

 

 

 

 

 

 

 

 

 

Server 2

 

 

 

 

 

 

 

 

 

400p+720p

 

 

 

 

 

Uploaded.net + rapidgator.net

 

 

 

 

 

 

http://shrt10.com/OfOqmhdM

 

 

http://shrt10.com/UyYiD

 

 

http://shrt10.com/okx0wK

 

 

http://shrt10.com/YSQAJ2

 

 

 

Leave a Reply

Your email address will not be published. Required fields are marked *