Download WWE Fastlane 2018 PPV WEB HEEL /720p Full Show Online

Download WWE Fastlane 2018 PPV WEB HEEL /720p Full Show Online

 

 

 

s

 

 

 

wwe

 

 

 

 

 

Complete name : WWE.Fastlane.2018.PPV.720p.WEB.h264-HEEL.mp4
Format : MPEG-4
Format profile : Base Media
Codec ID : isom
File size : 5.53 GiB
Duration : 2h 55mn
Overall bit rate : 4 508 Kbps
Writing application : Lavf58.2.103

Video
ID : 1
Format : AVC
Format/Info : Advanced Video Codec
Codec ID : avc1
Codec ID/Info : Advanced Video Coding
Duration : 2h 55mn
Bit rate mode : Constant
Bit rate : 4 372 Kbps
Width : 1 280 pixels
Height : 720 pixels
Display aspect ratio : 16:9
Frame rate mode : Constant
Frame rate : 29.970 fps
Color space : YUV
Chroma subsampling : 4:2:0
Bit depth : 8 bits
Scan type : Progressive
Bits/(Pixel*Frame) : 0.158
Stream size : 5.36 GiB (97%)

Audio
ID : 2
Format : AAC
Format/Info : Advanced Audio Codec
Format profile : LC
Codec ID : 40
Duration : 2h 55mn
Bit rate mode : Variable
Bit rate : 125 Kbps
Maximum bit rate : 127 Kbps
Channel(s) : 2 channels
Channel positions : Front: L R
Sampling rate : 48.0 KHz
Compression mode : Lossy
Stream size : 158 MiB (3%)
Language : English

 

 

 

 

Download WWE Fastlane 2018 PPV WEB HEEL /720p Full Show Online

 

 

 

Title: WWE.Fastlane.2018.PPV.720p.WEB.h264-HEEL
Released: 2018.03.11
Source: WWE Network
Resolution: 1280 x 720 @ 29.970 FPS
Video: H.264 @ 4500 kbps
Audio: AAC @ 128 kbps
Size: 5.53 GB
Runtime: 2h 56mn
 

 

 

 

 

Download WWE Fastlane 2018 PPV WEB HEEL /720p Full Show Online

 

 

 

Watch online

 

 

Waiting finish converting video

 

 

Server 1

 

 

 

 

 

 

 

 


 

 

 

 

 

 

Server 2

 

 

 

 

 

 


 

 

400p+720p

 

 

 

 

 

Uploaded.net + rapidgator.net

 

 

 

 

 

 

 

 

http://shrt10.com/qjg9WQo6

 

http://shrt10.com/cbbg

 

http://shrt10.com/2b0oipl

 

http://shrt10.com/CZMo

 

http://shrt10.com/QKQbc

 

http://shrt10.com/Mwf6Kb8t

 

 

 

 

 

 

 

Leave a Reply

Your email address will not be published. Required fields are marked *