Download WWE Fastlane 2018 Kickoff WEB HEEL /720p

Download WWE Fastlane 2018 Kickoff WEB HEEL /720p

 

 

 

s

 

 

 

wwe

 

 

 

 

 

 

 

 

Title: WWE.Fastlane.2018.Kickoff.WEB.h264-HEEL
Released: 2018.03.11
Source: WWE Network
Resolution: 896 x 504 @ 29.970 FPS
Video: H.264 @ 1800 kbps
Audio: AAC @ 96 kbps
Size: 765 MB
Runtime: 59mn 15sec

 

 

Download WWE Fastlane 2018 Kickoff WEB HEEL /720p

 

 

 

Complete name : WWE.Fastlane.2018.Kickoff.720p.WEB.h264-HEEL.mp4
Format : MPEG-4
Format profile : Base Media
Codec ID : isom
File size : 1.86 GiB
Duration : 59mn 15s
Overall bit rate : 4 504 Kbps
Writing application : Lavf58.2.103

Video
ID : 1
Format : AVC
Format/Info : Advanced Video Codec
Codec ID/Info : Advanced Video Coding
Duration : 59mn 15s
Bit rate mode : Constant
Bit rate : 4 372 Kbps
Width : 1 280 pixels
Height : 720 pixels
Display aspect ratio : 16:9
Frame rate mode : Variable
Frame rate : 29.970 fps
Minimum frame rate : 23.018 fps
Maximum frame rate : 29.970 fps
Color space : YUV
Chroma subsampling : 4:2:0
Bit depth : 8 bits
Scan type : Progressive
Bits/(Pixel*Frame) : 0.158
Stream size : 1.81 GiB (97%)

Audio
ID : 2
Format : AAC
Format/Info : Advanced Audio Codec
Format profile : LC
Codec ID : 40
Duration : 59mn 15s
Bit rate mode : Constant
Bit rate : 125 Kbps
Channel(s) : 2 channels
Channel positions : Front: L R
Sampling rate : 48.0 KHz
Compression mode : Lossy
Stream size : 53.2 MiB (3%)
Language : English

 

 

 

 

Download WWE Fastlane 2018 Kickoff WEB HEEL /720p

 

 

Watch online

 

 

Waiting finish converting video

 

 

Server 1

 

 

 

 

 

 

 

 

 

 

 

Server 2

 

 

 


 

 

 

 

 

400p+720p

 

 

 

 

 

Uploaded.net + rapidgator.net

 

 

 

 

 

 

 

http://shrt10.com/fvuP

 

 

http://shrt10.com/pLVH0Kw

 

 

http://shrt10.com/akGyj

 

 

http://shrt10.com/WSBL

 

 

 

 

 

Leave a Reply

Your email address will not be published. Required fields are marked *