Download RPW Live At The Cockpit 27 2018-03-04 WEB iNDYHEEL /720p

Download RPW Live At The Cockpit 27 2018-03-04 WEB iNDYHEEL /720p

 

 

 

s

 

 

 

wwe

 

 

 

 
– Legion Of Lords Vs Never Say Die

– Adam Brooks Vs Dan Magee

– Josh Bodom/Zack Gibson Vs Team White Wolf (A-Kid & Adam Chase)

Undisputed British Cruiserweight Championship

– No Fun Dunne Vs Kurtis Chapman (c)

– CCK (Travis Banks & Chris Brookes) Vs Aussie Open (Kyle Fletcher & Mark Davis)

– David Starr Vs Jody Fleisch

– Zack Sabre Jr Vs El Phantasmo
 

 

Download RPW Live At The Cockpit 27 2018-03-04 WEB iNDYHEEL /720p

 

 

Complete name : RPW.2018.03.04.Live.At.The.Cockpit.27.720p.WEB.h264-iNDYHEEL.mp4
Format : MPEG-4
Format profile : Base Media
Codec ID : isom
File size : 2.74 GiB
Duration : 2h 25mn
Overall bit rate : 2 697 Kbps
Writing application : Lavf58.2.103

Video
ID : 1
Format : AVC
Format/Info : Advanced Video Codec
Codec ID : avc1
Codec ID/Info : Advanced Video Coding
Duration : 2h 25mn
Bit rate mode : Variable
Bit rate : 2 590 Kbps
Width : 1 280 pixels
Height : 720 pixels
Display aspect ratio : 16:9
Frame rate mode : Constant
Frame rate : 29.970 fps
Color space : YUV
Chroma subsampling : 4:2:0
Bit depth : 8 bits
Scan type : Progressive
Bits/(Pixel*Frame) : 0.094
Stream size : 2.63 GiB (96%)

Audio
ID : 2
Format : AAC
Format/Info : Advanced Audio Codec
Format profile : LC
Codec ID : 40
Duration : 2h 25mn
Bit rate mode : Variable
Bit rate : 100 Kbps
Maximum bit rate : 107 Kbps
Channel(s) : 2 channels
Channel positions : Front: L R
Sampling rate : 48.0 KHz
Compression mode : Lossy
Stream size : 104 MiB (4%)

 

 

Download RPW Live At The Cockpit 27 2018-03-04 WEB iNDYHEEL /720p

 

 

Watch online

 

 

Waiting finish converting video

 

 

Server 1

 

 

 

 

 

 

 

 

 

Server 2

 

 

 

 

 


 

 

 

400p+720p

 

 

 

 

 

Uploaded.net + rapidgator.net

 

 

 

 

 

 

http://shrt10.com/d55AbESs

 

 

 

http://shrt10.com/ElhCn

 

 

 

http://shrt10.com/NBYtu

 

 

http://shrt10.com/tIqH4

 

 

 

 

Leave a Reply

Your email address will not be published. Required fields are marked *