Download ROH PPV 16th Anniversary 720p 2018-03-09 WEB HEEL / Pershow

Download ROH PPV 16th Anniversary 720p 2018-03-09 WEB HEEL / Pershow

 

 

 

s

 

 

 

wwe

 

 

 

 

 

 

Complete name : ROH.16th.Anniversary.Preshow.9th.March.2018.720p.WEBRip.h264-TJ.mp4
Format : MPEG-4
Format profile : Base Media
Codec ID : isom
File size : 538 MiB
Duration : 30mn 59s
Overall bit rate : 2 427 Kbps
Writing application : Lavf56.40.101

Video
ID : 1
Format : AVC
Format/Info : Advanced Video Codec
Codec ID : avc1
Codec ID/Info : Advanced Video Coding
Duration : 30mn 59s
Bit rate mode : Variable
Bit rate : 2 285 Kbps
Width : 1 280 pixels
Height : 720 pixels
Display aspect ratio : 16:9
Frame rate mode : Variable
Frame rate : 29.970 fps
Minimum frame rate : 28.571 fps
Maximum frame rate : 30.303 fps
Color space : YUV
Chroma subsampling : 4:2:0
Bit depth : 8 bits
Scan type : Progressive
Bits/(Pixel*Frame) : 0.083
Stream size : 506 MiB (94%)

Audio
ID : 2
Format : AAC
Format/Info : Advanced Audio Codec
Format profile : LC
Codec ID : 40
Duration : 30mn 59s
Bit rate mode : Constant
Bit rate : 132.3 Kbps
Channel(s) : 2 channels
Channel positions : Front: L R
Sampling rate : 48.0 KHz
Compression mode : Lossy
Stream size : 28.8 MiB (5%)

 

 

Download ROH PPV 16th Anniversary 720p 2018-03-09 WEB HEEL / Pershow

 

 

  Title: ROH.16th.Anniversary.PPV.720p.WEB.h264-HEEL
Released: 2018.03.09
Source: WEB
Resolution: 1280 x 720 @ 29.970 FPS
Video: H.264 @ 2304 kbps
Audio: AAC @ 130 kbps
Size: 3.01 GB
Runtime: 2h 57mn 

 

 

 

 

 

Download ROH PPV 16th Anniversary 720p 2018-03-09 WEB HEEL / Pershow

 

 

 

 

Watch online

 

 

Waiting finish converting video

 

 

Server 1

 

 

 

 

 

 

 

 

 

 

 

 

 

 

 

 

 

 

 

 

 

 

 

 

 

Server 2

 

 

 

 

 

 

 

 

 

 

 

 

 


 

 

 

 

 

Uploaded.net + rapidgator.net

 

 

 

 

 

 

http://shrt10.com/BPouMbg9

 

 

 

http://shrt10.com/nhsIC

 

 

 

http://shrt10.com/0KDAZ5z

 

 

 

http://shrt10.com/9gUQY1

 

 

 

 

Leave a Reply

Your email address will not be published. Required fields are marked *