Download WWE Vintage Collection 2018-03-11 HDTV Ebi mp4

Download WWE Vintage Collection 2018-03-11 HDTV Ebi mp4

 

 

 

s

 

 

 

wwe

 

 

 

 

 

 

 

 

 
WWE.Vintage.Collection.2018.03.11.HDTV.x264-Ebi 
Release Info: 
Show Name: WWE Vintage Collection 
Genre: Wrestling 
Release Date: 2018-03-09(UK) 
Air Date: 2018-03-11(UK) 
Source : HDTV 
Container: MP4 
Video: x264, 1463Kbps, 29,970fps, 712×400, 16:9 
Audio: AAC, 160Kbps, 48KHz, 2ch 
Size: 449 MB 
Runtime: 42mn 52s

Video
ID : 1
Format : AVC
Format/Info : Advanced Video Codec
Codec ID : avc1
Codec ID/Info : Advanced Video Coding
Duration : 42mn 52s
Bit rate mode : Variable
Bit rate : 1 300 Kbps
Width : 712 pixels
Height : 400 pixels
Display aspect ratio : 16:9
Frame rate mode : Constant
Frame rate : 29.970 fps
Color space : YUV
Chroma subsampling : 4:2:0
Bit depth : 8 bits
Scan type : Progressive
Bits/(Pixel*Frame) : 0.152
Stream size : 398 MiB (89%)

Audio
ID : 2
Format : AAC
Format/Info : Advanced Audio Codec
Format profile : LC
Codec ID : 40
Duration : 42mn 52s
Bit rate mode : Variable
Bit rate : 160 Kbps
Channel(s) : 2 channels
Channel positions : Front: L R
Sampling rate : 48.0 KHz
Compression mode : Lossy
Stream size : 49.2 MiB (11%)
Title : Stereo
Encoded date : UTC 2018-03-07 17:59:47
Tagged date : UTC 2018-03-07 17:59:47

 

 

 

Download WWE Vintage Collection 2018-03-11 HDTV Ebi mp4

 

 

 

 

Download WWE Vintage Collection 2018-03-11 HDTV Ebi mp4

 

 

 

 

 

Watch online

 

 

Waiting finish converting video

 

 

Server 1

 

 

 

 

 

 

 

 

 

 

 

 

 

 

 

Server 2

 

 

 

 

 

 


 

 

 

 

 

Uploaded.net + rapidgator.net

 

 

 

 

 

 

 

http://shrt10.com/WaUUgDL

 

 

 

 

 

http://shrt10.com/CVXP

 

 

 

 

 

 

 

Leave a Reply

Your email address will not be published. Required fields are marked *