Download 4 Disc Craig Jones Down Under Leg Attacks 1080p mp4

Download 4 Disc Craig Jones Down Under Leg Attacks 1080p mp4

 

 

 

 

 

 

wwe

 

 

 

 

 

 

 

 

 

Complete name : Craig Jones – Down Under Leg Attacks – Disc 3.mp4
Format : MPEG-4
Format profile : Base Media / Version 2
Codec ID : mp42
File size : 1.14 GiB
Duration : 39mn 58s
Overall bit rate : 4 076 Kbps

Video
ID : 1
Format : AVC
Format/Info : Advanced Video Codec
Codec ID/Info : Advanced Video Coding
Duration : 39mn 58s
Bit rate mode : Variable
Bit rate : 3 816 Kbps
Width : 1 920 pixels
Height : 1 080 pixels
Display aspect ratio : 16:9
Frame rate mode : Constant
Frame rate : 29.970 fps
Color space : YUV
Chroma subsampling : 4:2:0
Bit depth : 8 bits
Scan type : Progressive
Bits/(Pixel*Frame) : 0.061
Stream size : 1.07 GiB (94%)

Audio
ID : 2
Codec ID : 40
Duration : 39mn 58s
Bit rate mode : Variable
Bit rate : 256 Kbps
Channel(s) : 2 channels
Channel positions : Front: L R
Sampling rate : 48.0 KHz
Compression mode : Lossy
Stream size : 73.2 MiB (6%)

 

 

 

Download 4 Disc Craig Jones Down Under Leg Attacks 1080p mp4

 

Complete name : Craig Jones – Down Under Leg Attacks – Disc 4.mp4
Format : MPEG-4
Format profile : Base Media / Version 2
Codec ID : mp42
File size : 1.23 GiB
Duration : 42mn 48s
Overall bit rate : 4 098 Kbps

Video
ID : 1
Format : AVC
Format/Info : Advanced Video Codec
Codec ID/Info : Advanced Video Coding
Duration : 42mn 48s
Bit rate mode : Variable
Bit rate : 3 838 Kbps
Width : 1 920 pixels
Height : 1 080 pixels
Display aspect ratio : 16:9
Frame rate mode : Constant
Frame rate : 29.970 fps
Color space : YUV
Chroma subsampling : 4:2:0
Bit depth : 8 bits
Scan type : Progressive
Bits/(Pixel*Frame) : 0.062
Stream size : 1.15 GiB (94%)

Audio
ID : 2
Format : AAC
Codec ID : 40
Duration : 42mn 48s
Bit rate mode : Variable
Bit rate : 256 Kbps
Channel(s) : 2 channels
Channel positions : Front: L R
Sampling rate : 48.0 KHz
Compression mode : Lossy
Stream size : 78.4 MiB (6%)

 

 

 

 

 

Download 4 Disc Craig Jones Down Under Leg Attacks 1080p mp4

 

 

Watch online

 

 

Waiting finish converting video

 

 

Server 1

 

 

 

 

 

 

 

 

 

 

 

 

 

 

 

 

 

 

 

 

 

 

 

 

 

 

 

 

 

Server 2

 

 

 

 

 

 

 

 

 


 


 

 

 

 

 

 

 

 

 

 

 

 

 

 

1080p

 

 

 

 

 

rapidgator.net

 

 

 

 

 

 

 

 

 

 

http://shrt10.com/T4R4J9

 

 

 

http://shrt10.com/lkXfoHD

 

 

 

 

 

 

 

 

 

 

 

2 thoughts on “Download 4 Disc Craig Jones Down Under Leg Attacks 1080p mp4

Leave a Reply

Your email address will not be published. Required fields are marked *