GFW Impact Wrestling 2017/08/31 HDTV x264 DX-TV /720p

GFW Impact Wrestling 2017/08/31 HDTV x264 DX-TV /720p

 

 

 

 

 

 

wwe

 

 

GFW Impact Wrestling 2017/08/31 HDTV x264 DX-TV /720p

 

 

 

[EVENT]………..: GFW Impact Wrestling 2017 08 31 HDTV x264 DX-TV mp4
[RELEASED]……..: 2017.08.31
[SOURCE]……….: 720p H264 AVCHD
[CONTAINER]…….: mp4
[SIZE]…………: 1 GB
[Capper Group]….: DX-TV
[Duration]……..: 1 h 23 m
[RESOLUTION]……: 960 x 540 {16:9}@ 29.970 FPS
[VIDEO]………..: x264 @ 1500 kbps
[AUDIO]………..: AAC @ 160 kbps
[language]……..: English
 

 

 

Complete name :TNA-GFW Impact Wrestling HDTV 2017-08-31 720p H264 AVCHD-SC-SDH.mp4
Format : MPEG-4
Format profile : Base Media
Codec ID : isom
File size : 2.95 GiB
Duration : 1h 23mn
Overall bit rate : 5 021 Kbps
Writing application : Lavf54.63.104

Video
ID : 1
Format : AVC
Format/Info : Advanced Video Codec
Format settings, CABAC : Yes
Format settings, ReFrames : 2 frames
Codec ID : avc1
Codec ID/Info : Advanced Video Coding
Duration : 1h 23mn
Duration_LastFrame : -21ms
Bit rate mode : Variable
Bit rate : 4 631 Kbps
Maximum bit rate : 8 720 Kbps
Width : 1 280 pixels
Height : 720 pixels
Display aspect ratio : 16:9
Frame rate mode : Variable
Frame rate : 29.970 fps
Minimum frame rate : 29.970 fps
Maximum frame rate : 30.000 fps
Color space : YUV
Chroma subsampling : 4:2:0
Bit depth : 8 bits
Scan type : Progressive
Bits/(Pixel*Frame) : 0.168
Stream size : 2.72 GiB (92%)
Color primaries : BT.709-5, BT.1361, IEC 61966-2-4, SMPTE RP177
Transfer characteristics : BT.709-5, BT.1361
Matrix coefficients : BT.709-5, BT.1361, IEC 61966-2-4 709, SMPTE RP177

Audio
ID : 2
Format : AAC
Format/Info : Advanced Audio Codec
Format profile : LC
Codec ID : 40
Duration : 1h 23mn
Bit rate mode : Variable
Bit rate : 384 Kbps
Maximum bit rate : 384 Kbps
Channel(s) : 2 channels
Channel positions : Front: L R
Sampling rate : 48.0 KHz
Compression mode : Lossy
Stream size : 229 MiB (8%)
Language : English

 

 

 

 

 

 

 

 

Watch online

 

 

Waiting finish converting video

 

 

Server 1

 

 

 

 

 

 

 

 

 

 

 

 

 

 

 

 

 

Server 2

 

 

 

 

 

 

 

 

 

 

 

 


 

 

 

 

 

 

 

 

 

 

400p+720p

 

 

 

Uploaded.net

 

 

 

 

http://shink.in/bEyBV

 

 

http://shink.in/6tZxP

 

 

 

 

 

 

 

 

rapidgator.net

 

 

 

 

http://shink.in/ILC1H

 

 

http://shink.in/A9aoL

 

 

 

 

 

 

 

GFW Impact Wrestling 2017/08/31 HDTV x264 DX-TV /720p

Leave a Reply

Your email address will not be published. Required fields are marked *