Download Invicta FC 25 Paluhi vs Kunitskaya WEB DL /720p

Download Invicta FC 25 Paluhi vs Kunitskaya WEB DL /720p

 

 

 

 

 

 

wwe

 

 

 

Download Invicta FC 25 Paluhi vs Kunitskaya WEB DL /720p

 

 

Complete name : Invicta.FC.25.Pa’aluhi.vs.Kunitskaya.WEB.DL.H264-SF63.mp4
Format : MPEG-4
Format profile : Base Media
Codec ID : isom
File size : 2.69 GiB
Duration : 4h 11mn
Overall bit rate : 1 528 Kbps
Writing application : Lavf56.40.101

Video
Format : AVC
Format settings, CABAC : Yes
Codec ID : avc1
Duration : 4h 11mn
Bit rate mode : Variable
Bit rate : 1 441 Kbps
Width : 852 pixels
Height : 480 pixels
Display aspect ratio : 16:9
Frame rate mode : Constant
Frame rate : 29.970 fps
Color space : YUV
Chroma subsampling : 4:2:0
Bit depth : 8 bits
Scan type : Progressive
Bits/(Pixel*Frame) : 0.118
Stream size : 2.54 GiB (94%)

Audio
ID : 2
Format : AAC
Codec ID : 40
Duration : 4h 11mn
Bit rate mode : Constant
Bit rate : 77.6 Kbps
Channel(s) : 2 channels
Channel positions : Front: L R
Sampling rate : 44.1 KHz
Compression mode : Lossy
Stream size : 140 MiB (5%)

 

 

 

 

 

Complete name : Invicta.FC.25.Pa’aluhi.vs.Kunitskaya.720p.WEB.DL.H264-SF63.mp4
Format : MPEG-4
Format profile : Base Media
Codec ID : isom
File size : 5.15 GiB
Duration : 4h 11mn
Overall bit rate : 2 926 Kbps

Video
Format : AVC
Codec ID : avc1
Codec ID/Info : Advanced Video Coding
Duration : 4h 11mn
Bit rate mode : Variable
Bit rate : 2 790 Kbps
Width : 1 280 pixels
Height : 720 pixels
Display aspect ratio : 16:9
Frame rate mode : Constant
Frame rate : 29.970 fps
Color space : YUV
Chroma subsampling : 4:2:0
Bit depth : 8 bits
Scan type : Progressive
Bits/(Pixel*Frame) : 0.101
Stream size : 4.91 GiB (95%)

Audio
ID : 2
Format : AAC
Format/Info : Advanced Audio Codec
Format profile : LC
Codec ID : 40
Duration : 4h 11mn
Bit rate mode : Constant
Bit rate : 126 Kbps
Channel(s) : 2 channels
Channel positions : Front: L R
Sampling rate : 44.1 KHz
Compression mode : Lossy
Stream size : 226 MiB (4%)

 

 

 

 

 

 

 

 

Watch online

 

 

Waiting finish converting video

 

 

Server 1

 

 

 

 

 

 

 

 

 

 

 

 

 

 

 

 

 

 

 

 

Server 2

 

 

 

 

 

 

 


 

 

 

 

 

 

 

400p+720p

 

 

 

Uploaded.net

 

 

 

 

 

http://shink.in/kj2Ha

 

 

http://shink.in/gUoje

 

 

http://shink.in/kzf6O

 

 

 

 

 

 

 

 

 

 

rapidgator.net

 

 

 

 

 

http://shink.in/Ida84

 

 

http://shink.in/dEeG4

 

 

http://shink.in/LCjHe

 

 

 

 

 

 

 

 

 

Download Invicta FC 25 Paluhi vs Kunitskaya WEB DL /720p

Leave a Reply

Your email address will not be published. Required fields are marked *